.
Авторизация | Регистрация
  • support: support@fantor.club
» » Территория заблуждений с Игорем Прокопенко (2014) SATRip скачать через торрент


    Территория заблуждений с Игорем Прокопенко (2014) SATRip скачать через торрент

    Дата: 27-02-2015, 10:41 | .torrent скачали: 1003

    Территория заблуждений с Игорем Прокопенко (2014) SATRip скачать через торрентИнформация
    Русское название: Территория заблуждений с Игорем Прокопенко
    Создали в: 2014
    Категория жанра: Документальный
    Ведет программу: Игорь Прокопенко


    Сюжет:
    Каждый день приносит научные сенсации, которые противоречат нашим привычным знаниям. Невероятные находки археологов опровергают учебники истории. Новейшие открытия астрономов начисто ломают знания о жизни Вселенной. А последние исследования медиков - рушат, казалось бы, незыблемые истины даже о жизни и смерти. В результате даже ученые все чаще приходят к неутешительному выводу - знания, накопленные человечеством на сегодняшний день - не более, чем территория заблуждений.








    Тех. данные


    Время просмотра: 00:46:16
    Снималось в: РЕН-ТВ
    Перевод текста: Не требуется
    Язык: Русский

    Автор рипа: Ponomarev1997

    Файл
    Тип видео: AVI
    Качество фильма: SATRip
    Информация о видео: XviD, 1801 kb/s, 720 х 400
    Информация о звуке: MP3, 2 ch, 128 Кбит/с
    MI:

    Формат : AVI
    Формат/Информация : Audio Video Interleave
    Размер файла : 641 Мбайт
    Продолжительность : 46 м.
    Общий поток : 1937 Кбит/сек
    Библиотека кодирования : VirtualDub build 32706/release

    Видео
    Идентификатор : 0
    Формат : MPEG-4 Visual
    Профиль формата : Advanced Simple@L5
    Параметр BVOP формата : 2
    Параметр QPel формата : Нет
    Параметр GMC формата : Без точки перехода
    Параметр матрицы формата : Default (MPEG)
    Идентификатор кодека : XVID
    Идентификатор кодека/Подсказка : XviD
    Продолжительность : 46 м.
    Битрейт : 1800 Кбит/сек
    Ширина : 720 пикселей
    Высота : 400 пикселей
    Соотношение сторон : 16:9
    Частота кадров : 25,000 кадров/сек
    Цветовое пространство : YUV
    Субдискретизация насыщенности : 4:2:0
    Битовая глубина : 8 бит
    Тип развёртки : Прогрессивная
    Метод сжатия : С потерями
    Бит/(Пиксели*Кадры) : 0.250
    Размер потока : 596 Мбайт (93%)
    Библиотека кодирования : XviD 1.2.1 (UTC 2008-12-04)

    Аудио
    Идентификатор : 1
    Формат : MPEG Audio
    Версия формата : Version 1
    Профиль формата : Layer 3
    Режим : Joint stereo
    Расширение режима : MS Stereo
    Идентификатор кодека : 55
    Идентификатор кодека/Подсказка : MP3
    Продолжительность : 46 м.
    Вид битрейта : Постоянный
    Битрейт : 128 Кбит/сек
    Каналы : 2 канала
    Частота : 48,0 КГц
    Метод сжатия : С потерями
    Размер потока : 42,4 Мбайт (7%)
    Выравнивание : Разделение по промежуткам
    Продолжительность промежутка : 40 мс. (1,00 видеокадр)
    Время предзагрузки промежутка : 500 мс.
    Скриншоты для ознакомления





    Размер скачиваемого торрента: 641.34 MB (672493780 Bytes)

    Территория заблуждений с Игорем Прокопенко (2014) SATRip скачать через торрент бесплатно
    Рейтинг →
     (голосов: 1, оценка 3/5, голосовать можно 1 раз )

    Другие торренты по теме:

  • Территория заблуждений с Игорем Прокопенко (2013) IPTVRip
  • Территория заблуждений с Игорем Прокопенко (2013) SATRip
  • «Территория заблуждений» с Игорем Прокопенко (101-138-й выпуски) (Сергей Першин)
  • Территория заблуждений с Игорем Прокопенко (2016.04.23) SATRip
  • «Территория заблуждений» с Игорем Прокопенко (101-137-й выпуски) (Сергей Першин)
  • Территория заблуждений с Игорем Прокопенко (2016.04.16) SATRip
  • «Территория заблуждений» с Игорем Прокопенко (101-136-й выпуски) (Сергей Першин)
  • Территория заблуждений с Игорем Прокопенко (2016.04.09) SATRip


    • Комментарии (0):

      Информация

      Информация

        Посетители, находящиеся в группе Гости, не могут оставлять комментарии в данной новости.

        ↓ Меню




        ↓ Опрос

        А Вы добавили сайт в закладки?
        Да
        Нет


        Top 10 за месяц (Передачи)