.
Авторизация | Регистрация
Хочешь лучшие торренты? Добавь свой email!
Добавить
  • support: webmaster@fantor.club
» » МастерШеф Россия (2013) SATRip скачать через торрент


    МастерШеф Россия (2013) SATRip скачать через торрент

    Опубликовал: fregat | Дата: 27-02-2015, 10:41 | .torrent скачали: 914

    МастерШеф Россия (2013) SATRip скачать через торрент

    Детально о кино
    Русское название: МастерШеф Россия
    Создали в: 2013
    Категория жанра: ТВ-шоу, кулинария
    Главный режиссер: Сергей Айрапетов, Феликс Михайлов
    Ведущие: Аркадий Новиков, Мирко Дзаго, Александр Соркин

    Сюжет фильма:
    16 участников, прошедших сложный этап отборочных туров столкнутся в борьбе за звание МастерШефа и внушительный денежный приз. Эмоции и накал страстей превысят температуру раскаленной посуды. Участникам необходимо будет противостоять завистливым взглядам коллег и их мелким пакостям, чтобы добиться признания настоящих профессионалов и компетентного жюри. Вести проект и оценивать участников будут 3 авторитетных и именитых судьи, чьи имена широко известны в ресторанном бизнесе - Аркадий Новиков, Мирко Дзаго и Александр Соркин


    Снималось в: Россия
    Киностудия: СТС
    Время просмотра: 12 x ~ 00:50:00
    Перевод текста: Не требуется

    Файл
    Кодек для видео: DivX / MP3
    Качество фильма: SATRip
    Информация о видео: DivX 5, 720x400 (16:9), 25.000 fps, 1 499 Kbps (0.208 bit/pixel)
    Информация о звуке: MP3, 48.0 KHz, 2 ch, 128 Kbps, CBR

    Скриншоты для ознакомления
    Screenshots
    MediaInfo
    General
    Complete name : /МастерШеф Россия/Masterchef.Russia.01.SATRip.avi
    Format : AVI
    Format/Info : Audio Video Interleave
    File size : 790 MiB
    Duration : 1h 7mn
    Overall bit rate : 1 636 Kbps
    Writing application : TMPGEnc Video Mastering Works 5 Version. 5.0.6.38
    Writing library : VirtualDub build 29808/release

    Video
    ID : 0
    Format : MPEG-4 Visual
    Format settings, BVOP : 1
    Format settings, QPel : No
    Format settings, GMC : No warppoints
    Format settings, Matrix : Default (H.263)
    Muxing mode : Packed bitstream
    Codec ID : DX50
    Codec ID/Hint : DivX 5
    Duration : 1h 7mn
    Bit rate : 1 499 Kbps
    Width : 720 pixels
    Height : 400 pixels
    Display aspect ratio : 16:9
    Frame rate : 25.000 fps
    Color space : YUV
    Chroma subsampling : 4:2:0
    Bit depth : 8 bits
    Scan type : Progressive
    Compression mode : Lossy
    Bits/(Pixel*Frame) : 0.208
    Stream size : 724 MiB (92%)
    Writing library : DivX 6.8.5 (UTC 2009-08-20)

    Audio
    ID : 1
    Format : MPEG Audio
    Format version : Version 1
    Format profile : Layer 3
    Mode : Joint stereo
    Codec ID : 55
    Codec ID/Hint : MP3
    Duration : 1h 7mn
    Bit rate mode : Constant
    Bit rate : 128 Kbps
    Channel(s) : 2 channels
    Sampling rate : 48.0 KHz
    Compression mode : Lossy
    Stream size : 61.8 MiB (8%)
    Alignment : Split accross interleaves
    Interleave, duration : 40 ms (1.00 video frame)
    Interleave, preload duration : 500 ms

    Размер скачиваемого торрента: 7.29 GB (7829065162 Bytes)

    МастерШеф Россия (2013) SATRip скачать через торрент бесплатно
    Рейтинг →
     (голосов: 1, оценка 5/5, голосовать можно 1 раз )

    Другие торренты по теме:

  • МастерШеф (2013) WEB-DLRip от GeneralFilm | Россия | КПК скачать через торрент


    • Комментарии (0):

      Информация

      Информация

        Посетители, находящиеся в группе Гости, не могут оставлять комментарии в данной новости.

        ↓ Меню




        ↓ Опрос

        А Вы добавили сайт в закладки?
        Да
        Нет


        Top 10 за месяц (Передачи)