.
Авторизация | Регистрация
Хочешь лучшие торренты? Добавь свой email!
Добавить
  • support: webmaster@fantor.club
» » Китай - Япония: столетняя война (2013) SATRip скачать торрент бесплатно


    Китай - Япония: столетняя война (2013) SATRip скачать торрент бесплатно

    Опубликовал: fregat | Дата: 27-02-2015, 10:41 | .torrent скачали: 314

    Китай - Япония: столетняя война

    Китай - Япония: столетняя война (2013) SATRip Год выпуска: 2013
    Страна: Россия, канал ТВЦ
    Жанр: документальный, история, хроника, политика
    Продолжительность: 00: 39: 00
    Перевод: Не требуется
    Русские субтитры: нет

    Режиссер: Екатерина Гальперина

    Описание: Противостояние двух держав на Дальнем Востоке, совсем рядом с границами России, подогревается непреодоленным прошлым. Ненависть, гнев и обида подстегивают сегодняшних политиков. Японские политики принесли извинения за действия императорской армии в годы Второй мировой. Но всякий раз, когда отношения Пекина и Токио ухудшаются, в Китае припоминают японцам старые грехи. Прошлое не забыто. Автор и ведущий: Леонид Млечин.

    качество: SATRip
    формат: AVI
    Видео: 640х480 (1.33: 1), 25 fps, XviD, ~1496 kbps avg, 0.19 bit/pixel
    Аудио: 48 kHz, MPEG Layer 3, 2 ch, ~128 kbps avg
    MediaInfo

    Complete name : D: Документалкаkitaj_japonija_stoletnjaja_vojna.avi
    Format : AVI
    Format/Info : Audio Video Interleave
    File size : 456 MiB
    Duration : 39mn 0s
    Overall bit rate : 1 634 Kbps
    Writing application : VirtualDubMod 1.5.10.3 | www.virtualdub-fr.org || (build 2550/release)
    Writing library : VirtualDubMod build 2550/release

    Video
    ID : 0
    Format : MPEG-4 Visual
    Format profile : Advanced Simple@L5
    Format settings, BVOP : Yes
    Format settings, QPel : No
    Format settings, GMC : No warppoints
    Format settings, Matrix : Default (MPEG)
    Codec ID : XVID
    Codec ID/Hint : XviD
    Duration : 39mn 0s
    Bit rate : 1 496 Kbps
    Width : 640 pixels
    Height : 480 pixels
    Display aspect ratio : 4: 3
    Frame rate : 25.000 fps
    Color space : YUV
    Chroma subsampling : 4: 2: 0
    Bit depth : 8 bits
    Scan type : Progressive
    Bits/(Pixel*Frame) : 0.195
    Stream size : 417 MiB (92%)
    Writing library : XviD 1.2.1 (UTC 2008-12-04)

    Audio
    ID : 1
    Format : MPEG Audio
    Format version : Version 1
    Format profile : Layer 3
    Codec ID : 55
    Codec ID/Hint : MP3
    Duration : 39mn 0s
    Bit rate mode : Constant
    Bit rate : 128 Kbps
    Channel(s) : 2 channels
    Sampling rate : 48.0 KHz
    Stream size : 35.7 MiB (8%)
    Alignment : Aligned on interleaves
    Interleave, duration : 40 ms (1.00 video frame)
    Interleave, preload duration : 504 ms
    Writing library : LAME3.99r
    Encoding settings : -m s -V 4 -q 2 -lowpass 17 -b 128

    Скриншоты



    Размер: 455.91 MB (478056448 Bytes)
    Рейтинг →
     (голосов: 1, оценка 5/5, голосовать можно 1 раз )

    Другие торренты по теме:

  • Китай: власть над миром Фильм Леонида Млечина (2012) IPTVRip
  • Беларусь - Китай. Стратегия партнерства (2013) DVBRip
  • Право голоса. Россия - Китай - брак по расчету (2013) WEBRip скачать через торрент
  • Assassins Creed Chronicles: Китай / Assassin’s Creed Chronicles: China (2015) PC | RePack от R.G. Steamgames
  • Assassins Creed Chronicles: Китай / Assassin’s Creed Chronicles: China (2015) PC | RePack от R.G. Steamgames
  • Assassins Creed Chronicles: Китай / Assassin’s Creed Chronicles: China (2015) PC | RePack от R.G. Механики
  • Assassins Creed Chronicles: Китай / Assassin’s Creed Chronicles: China (2015) PC | RePack от R.G. Механики
  • Assassins Creed Chronicles: Китай / Assassin’s Creed Chronicles: China (2015) PC | RePack от R.G. Steamgames


    • Комментарии (0):

      Информация

      Информация

        Посетители, находящиеся в группе Гости, не могут оставлять комментарии в данной новости.

        ↓ Меню




        ↓ Опрос

        А Вы добавили сайт в закладки?
        Да
        Нет


        Top 10 за месяц (Передачи)