Подписывайся на наш канал в Telegram https://t.me/torrentok и получи доступ к торрентам без ограничений!
.
Авторизация | Регистрация
fantor.club
Cкачать торрент бесплатно фильмы, игры, музыка, книги Передачи торрент скачать Comedy Woman. Новый сезон (2015) SATRip скачать торрент бесплатно


    Comedy Woman. Новый сезон (2015) SATRip скачать торрент бесплатно

    Дата: 10-10-2015, 12:20 | .torrent скачали: 335


    Comedy Woman. Новый сезон (2015) SATRip
    Детально о кино
    Русское название: Comedy Woman
    Создали в: 2015
    Категория жанра: Юмористическое шоу
    Главный режиссер: Дмитрий Хрусталёв

    Актеры
    Дмитрий Хрусталев, Наталья Еприкян, Екатерина Скулкина, Екатерина Варнава, Мария Кравченко, Полина Сибагатуллина, Екатерина Баранова, Татьяна Морозова, Елена Борщёва, Наталия Медведева, Надежда Сысоева, Надежда Ангарская

    Сюжет фильма

    Развлекательное шоу, в котором пресловутая женская логика оказывается как нельзя кстати. Девушки с выдающимся юмором и не менее выдающимися формами не позволят заскучать самому закоренелому снобу и накажут смехом даже законченного шовиниста. Сomedy Woman - место, в котором приятно побывать и не стыдно об этом вспомнить! Особенно зажигательные танцы, очень смешные шутки, а также жизненные истории, в которых каждая дама точно узнает себя и своих подруг.
    Снималось в: Россия
    Киностудия: ТНТ
    Время просмотра: 00: 47: 43
    Перевод текста: Не требуется
    Файл
    Кодек для видео: XviD
    Качество фильма: SATRip
    Информация о видео: 720x400, 25.00 fps, 1800 kbps
    Информация о звуке: 48000 Hz, 128 kbps, 2 Channel
    Скриншоты

    MediaInfo

    Общее
    Полное имя : D: KW.2015.10.09.SATRip.avi
    Формат : AVI
    Формат/Информация : Audio Video Interleave
    Размер файла : 619 Мбайт
    Продолжительность : 44 м.
    Общий поток : 1936 Кбит/сек
    Программа кодирования : VirtualDubMod 1.5.10.3 | www.virtualdub-fr.org || (build 2550/release)
    Библиотека кодирования : VirtualDub build 29808/release
    Видео
    Идентификатор : 0
    Формат : MPEG-4 Visual
    Профиль формата : Advanced Simple@L5
    Параметр BVOP формата : 3
    Параметр QPel формата : Нет
    Параметр GMC формата : Без точки перехода
    Параметр матрицы формата : Default (H.263)
    Идентификатор кодека : XVID
    Идентификатор кодека/Подсказка : XviD
    Продолжительность : 44 м.
    Битрейт : 1798 Кбит/сек
    Ширина : 720 пикселей
    Высота : 400 пикселей
    Соотношение сторон : 16: 9
    Частота кадров : 25, 000 кадров/сек
    Цветовое пространство : YUV
    Субдискретизация насыщенности : 4: 2: 0
    Битовая глубина : 8 бит
    Тип развёртки : Прогрессивная
    Метод сжатия : С потерями
    Бит/(Пиксели*Кадры) : 0.250
    Размер потока : 575 Мбайт (93%)
    Библиотека кодирования : XviD 1.2.1 (UTC 2008-12-04)
    Аудио
    Идентификатор : 1
    Формат : MPEG Audio
    Версия формата : Version 1
    Профиль формата : Layer 3
    Идентификатор кодека : 55
    Идентификатор кодека/Подсказка : MP3
    Продолжительность : 44 м.
    Вид битрейта : Постоянный
    Битрейт : 128 Кбит/сек
    Каналы : 2 канала
    Частота : 48, 0 КГц
    Метод сжатия : С потерями
    Размер потока : 41, 0 Мбайт (7%)
    Выравнивание : Соединение по промежуткам
    Продолжительность промежутка : 40 мс. (1, 00 видеокадр)
    Время предзагрузки промежутка : 504 мс.
    Библиотека кодирования : LAME3.99r
    Залил: Гена84
    Размер скачиваемого торрента: 642.66 MB (673880632 Bytes)


    Comedy Woman. Новый сезон (2015) SATRip скачать торрент бесплатно
    Рейтинг →
     (голосов: 1, оценка 4/5, голосовать можно 1 раз )

    Другие торренты по теме:

  • Comedy Woman. 1-55 выпуски / Made in Woman. 4 выпуска
  • Comedy Woman (эфир от 2015.10.16) / 2015 / РУ / SATRip
  • Comedy Woman (эфир от 16.10.2015) / 2015 / РУ / WEB-DL (720p)
  • Comedy Woman (эфир от 2015.10.23) / 2015 / РУ / SATRip
  • Comedy Woman (эфир от 06.11.2015) / 2015 / РУ / WEB-DL (720p)
  • Comedy Woman (эфир от 2015.12.04) / 2015 / РУ / SATRip
  • Comedy Woman - Лучшее (Официальный саундтрек) (2016) MP3
  • Comedy Woman / Сезон 8, Выпуски 1-19 из 19 (2017-2018) HDTV 1080i


    • Комментарии (0):

      Информация

      Информация

        Посетители, находящиеся в группе Гости, не могут оставлять комментарии в данной новости.