Подписывайся на наш канал в Telegram https://t.me/torrentok и получи доступ к торрентам без ограничений!
.
Авторизация | Регистрация
fantor.club


Легенды Севера / Legends of the North (1994) DVDRip от NovaLan скачать через торрент

Дата: 27-02-2015, 10:41 | .torrent скачали: 398

Легенды Севера / Legends of the North (1994) DVDRip от NovaLan скачать через торрент



Снималось в: Канада, Франция
Создали в: Cin?vid?o Plus, Ellipse Programme, FUND
Категория жанра: Приключения
Создали в: 1994

Время просмотра: 01:35:30


Перевод текста: Профессиональный многоголосый

Оригинальная аудиодорожка: Английская

Главный режиссер: Рене Манзор


Актеры: Рэнди Куэйд, Джорджес Коррафас, Маша Гренон, Сандрина Хольт, Палласко Обер, Серж Уд, Джон Данн-Хилл, Билли Мерэсти, Линда Смит, Эстер Майо, Шарон Томпсон, Флинт Орел, Джейсон Кавалье, Стефан Лефевр


Сюжет: Середина XIX века. Суровая красота Севера, жажда наживы и непреодолимый дух авантюризма привлек на Аляску множество людей. Началось время легендарной Золотой лихорадки.



Исходник: DVD5 R5

Тип релиза: DVDRip

Контейнер: AVI


Информация о видео: XviD, 1287 Кбит/с, 704х528
Информация о звуке: Русский, английский (АС3, 6 ch, 448 Кбит/с)



MediaInfo
Общее
Полное имя : D:1АААЛегенды Севера.avi
Формат : AVI
Формат/Информация : Audio Video Interleave
Размер файла : 1,46 Гбайт
Продолжительность : 1 ч. 35 м.
Общий поток : 2192 Кбит/сек
Программа кодирования : VirtualDubMod 1.5.10.2 (build 2540/release)
Библиотека кодирования : VirtualDubMod build 2540/release

Видео
Идентификатор : 0
Формат : MPEG-4 Visual
Профиль формата : Advanced Simple@L5
Параметр BVOP формата : 2
Параметр QPel формата : Нет
Параметр GMC формата : Без точки перехода
Параметр матрицы формата : Default (MPEG)
Режим смешивания : Сжатый битовый поток
Идентификатор кодека : XVID
Идентификатор кодека/Подсказка : XviD
Продолжительность : 1 ч. 35 м.
Битрейт : 1282 Кбит/сек
Ширина : 704 пикселя
Высота : 528 пикселей
Соотношение сторон : 4:3
Частота кадров : 23,976 кадра/сек
Цветовое пространство : YUV
Субдискретизация насыщенности : 4:2:0
Битовая глубина : 8 бит
Тип развёртки : Прогрессивная
Метод сжатия : С потерями
Бит/(Пиксели*Кадры) : 0.144
Размер потока : 876 Мбайт (58%)
Библиотека кодирования : XviD 1.2.1 (UTC 2008-12-04)

Аудио #1
Идентификатор : 1
Формат : AC-3
Формат/Информация : Audio Coding 3
Расширение режима : CM (complete main)
Параметр Endianness формата : Big
Идентификатор кодека : 2000
Продолжительность : 1 ч. 35 м.
Вид битрейта : Постоянный
Битрейт : 448 Кбит/сек
Каналы : 6 каналов
Расположение каналов : Front: L C R, Side: L R, LFE
Частота : 48,0 КГц
Битовая глубина : 16 бит
Метод сжатия : С потерями
Размер потока : 306 Мбайт (20%)
Выравнивание : Разделение по промежуткам
Продолжительность промежутка : 42 мс. (1,00 видеокадр)
Время предзагрузки промежутка : 500 мс.

Аудио #2
Идентификатор : 2
Формат : AC-3
Формат/Информация : Audio Coding 3
Расширение режима : CM (complete main)
Параметр Endianness формата : Big
Идентификатор кодека : 2000
Продолжительность : 1 ч. 35 м.
Вид битрейта : Постоянный
Битрейт : 448 Кбит/сек
Каналы : 6 каналов
Расположение каналов : Front: L C R, Side: L R, LFE
Частота : 48,0 КГц
Битовая глубина : 16 бит
Метод сжатия : С потерями
Размер потока : 306 Мбайт (20%)
Выравнивание : Разделение по промежуткам
Продолжительность промежутка : 42 мс. (1,00 видеокадр)
Время предзагрузки промежутка : 500 мс.







Скриншоты для ознакомления




Релиз группа:

Автор рипа:
Залил: YArl
Размер скачиваемого торрента: 1.46 GB (1570168832 Bytes)
Рейтинг →
 (голосов: 1, оценка 5/5, голосовать можно 1 раз )

Другие торренты по теме:

  • Легенды севера / Legends Of The North (Рене Манзор)
  • Легенды Севера / Legends of the North (Рене Манзор / Rene Manzor) MVO + original
  • Коллектив авторов - Сказки и легенды народов Севера, Сибири и Дальнего Востока (1917 - 2016) PDF, DjVu, FB2


    • Комментарии (0):

      Информация

      Информация

        Посетители, находящиеся в группе Гости, не могут оставлять комментарии в данной новости.