Подписывайся на наш канал в Telegram https://t.me/torrentok и получи доступ к торрентам без ограничений!
.
Авторизация | Регистрация
fantor.club


Теория Большого Взрыва / The Big Bang Theory (2013) HDTVRip-AVC | Кураж-Бамбей скачать через торрент

Дата: 27-02-2015, 10:41 | .torrent скачали: 493

Теория Большого Взрыва / The Big Bang Theory

Теория Большого Взрыва / The Big Bang Theory (2013) HDTVRip-AVC | Кураж-Бамбей скачать через торрент Год выпуска: 2013
Страна: США
Жанр: ситком
Продолжительность: 00: 21: 00

Перевод: Профессиональный (одноголосый закадровый) Кураж-Бамбей
Русские субтитры: нет
Режиссёр: Марк Сендроуски

В ролях: Джонни Галекки, Джим Парсонс, Кейли Куоко, Саймон Хельберг, Кунал Найяр

Описание: Два блестящих физика, Леонард и Шелдон, великие умы, которые понимают, как работает вселенная. Но их гениальность ничуть не помогает им общаться с людьми, особенно с женщинами. Всё начинает меняться, когда напротив них поселяется красавица Пенни.
Когда Леонард и Шелдон встречают Пенни, Леонард сразу же начинает интересоваться ею. Он видит в общении с Пенни огромную перспективу, вплоть до любви, однако Шелдон понимает, что мечтам его друга не суждено сбыться.
Стоит также отметить пару странных друзей этих физиков: Воловиц, который любит употреблять фразы на разных языках, включая русский, и Раджеш Кутрапали, теряющий дар речи при виде женщин.

Качество: HDTVRip-AVC
Формат: MP4
Видео: XviD MPEG-4, 720x400 (16: 9), ~1000 kbps, 23.976 fps, 0.142 bit/pixel
Аудио RUS: MP3 48.0 kHz, 128 kbps, 2 ch
Аудио ENG: MP3 AAC, 44.1 kHz, 128 kbps, 2 ch

Семпл
MediaInfo

C: ???????The.Big.Bang.Theory.S07E01.HDTV.Kuraj-Bambey.Rus
General
Complete name : C: ???????The.Big.Bang.Theory.S07E01.HDTV.Kuraj-Bambey.Rus
Format : AVI
Format/Info : Audio Video Interleave
File size : 275 MiB
Duration : 21mn 19s
Overall bit rate : 1 800 Kbps
Writing application : XviD4PSP 6.0 / 53.6.0
Video #0
ID : 0
Format : MPEG-4 Visual
Format profile : AdvancedSimple@L5
Format settings, BVOP : Yes
Format settings, QPel : No
Format settings, GMC : No warppoints
Format settings, Matrix : Default (H.263)
Codec ID : XVID
Codec ID/Hint : XviD
Duration : 21mn 19s
Bit rate : 1 523 Kbps
Width : 720 pixels
Height : 400 pixels
Display aspect ratio : 16: 9
Frame rate : 23.976 fps
Resolution : 24 bits
Colorimetry : 4: 2: 0
Scan type : Progressive
Bits/(Pixel*Frame) : 0.221
Stream size : 232 MiB (85%)
Title : Video
Writing library : XviD 64
Audio #1
ID : 1
Format : MPEG Audio
Format version : Version 1
Format profile : Layer 3
Codec ID : 55
Codec ID/Hint : MP3
Duration : 21mn 19s
Bit rate mode : Constant
Bit rate : 128 Kbps
Channel(s) : 2 channels
Sampling rate : 48.0 KHz
Resolution : 16 bits
Stream size : 19.5 MiB (7%)
Alignment : Aligned on interleaves
Interleave, duration : 24 ms (0.58 video frame)
Title : Jetvis Studio
Audio #2
ID : 2
Format : MPEG Audio
Format version : Version 1
Format profile : Layer 3
Codec ID : 55
Codec ID/Hint : MP3
Duration : 21mn 19s
Bit rate mode : Constant
Bit rate : 128 Kbps
Channel(s) : 2 channels
Sampling rate : 48.0 KHz
Resolution : 16 bits
Stream size : 19.5 MiB (7%)
Alignment : Aligned on interleaves
Interleave, duration : 24 ms (0.58 video frame)
Title : Original

Скриншоты




Внимание! Раздача ведется путем добавления новых серий

Внимание! Раздача ведётся путём добавления новых серий; при каждом добавлении создётся новый торрент. Чтобы начать докачку новой серии, пользователям необходимо сделать следующее: (1) остановить скачивание, (2) удалить старый торрент у себя из клиента (старые серии удалять не надо), (3) скачать новый торрент и запустить его у себя в клиенте вместо старого, при этом указать клиенту путь в старую папку куда и должно происходить скачивание новых серий.
Ваш клиент при этом должен произвести хеширование (проверку) старой папки (если не производит сам - помогите ему сделать это), и будет докачивать только те серии которых у вас ещё нет. Старые серии при этом не удаляются, а продолжают раздаваться!
Eсли вы уже удалили старые серии, то предотвратить повторную закачку старых серий можно, отжав галочку в соответсвующих местах при запуске нового торрента. По возможности, желательно не удалять старые серии как можно дольше чтобы релизёр не столько продолжал раздавать старые серии, а смог сконцентрироваться на новых.

Размер: 339.28 MB (355758743 Bytes)
Рейтинг →
 (голосов: 1, оценка 4/5, голосовать можно 1 раз )

Другие торренты по теме:

  • Теория Большого Взрыва / The Big Bang Theory (2012) HDTVRip | Sub
  • Теория Большого Взрыва / The Big Bang Theory (2013) HDTVRip | Sub
  • Теория Большого Взрыва / The Big Bang Theory (2013) HDTVRip 720p | Sub
  • Теория Большого Взрыва / The Big Bang Theory (2013) BDRip 720P | Renegade Team скачать через торрент
  • Теория Большого Взрыва / The Big Bang Theory (2013) WEB-DL 1080i | Кураж-Бамбей скачать через торрент
  • Теория Большого Взрыва / The Big Bang Theory (2013) HDTVRip 720р | Кураж-Бамбей скачать через торрент
  • Теория Большого Взрыва / The Big Bang Theory (2013) WEB-DL 720p | Renegade Team скачать через торрент
  • Теория большого взрыва / The Big Bang Theory (2007 – 2013) HDTVRip | Кураж-Бамбей скачать через торрент


    • Комментарии (0):

      Информация

      Информация

        Посетители, находящиеся в группе Гости, не могут оставлять комментарии в данной новости.