.
Авторизация | Регистрация
  • support: support@fantor.club
» » Великолепный век. Создание легенды / Muhtesem Yuzyl. Yapim Belgeseli (2013) WEB-DLRip скачать торрент бесплатно


    Великолепный век. Создание легенды / Muhtesem Yuzyl. Yapim Belgeseli (2013) WEB-DLRip скачать торрент бесплатно

    Дата: 27-02-2015, 10:41 | .torrent скачали: 467

    Великолепный век. Создание легенды / Muhtesem Yuzyl. Yapim Belgeseli (2013) WEB-DLRip

    Информация о фильме
    Название: Великолепный век. Создание легенды
    Оригинальное название: Muhtesem Yuzy?l. Yapim Belgeseli
    Год выхода: 2013
    Жанр: Документальный
    Режиссер: Дурул Тайлан, Ягмур Тайлан
    В ролях: Мерьем Узерли, Сельма Эргеч, Халит Эргенч, Небахат Чехре, Мелике Ипек Ялова, Саадет Аксой, Окан Ялабык

    О фильме:
    Документальная лента как снимали сериал. Интервью с актёрами и создателями. Сюжет основан на реальных событиях, произошедших во времена правления султана Сулеймана I (Сулеймана Великолепного), который дольше всех правил Османской империей. В сериале описывается период жизни Александры (Хюррем), которую турки взяли в плен во времена набега крымских татар на Украину в ~1520 году. Роксолана была подарена визирем Ибрагимом-пашой Сулейману I. Вскоре, приняв ислам, Роксолана стала именоваться Хюррем (тур. Hurrem). Чтобы реализовать свои амбиции в султанате, Хюррем устраняет всех, кто ей может в этом помешать.
    История любви, ставшая легендой. Блестящая жизнь. Неугасающие страсти. Амбиции, ведущие к смерти. Предательство, разрушающее чужие судьбы. Меняющее прошлое и творящее настоящее могущественные Султаны, Визири и Султанши. И двое искателей приключений, которые позаимствовали эти образы из книг, облачили их в костюмы, вдохнули в них жизнь и перенесли в 21 век, писательница, влюблённая в историю и продюсер, обожающий творить невозможное — Мераль Окай и Тимур Савджи — расскажут о том, как всё начиналось.

    Вас ждет увлекательное путешествие в мир кино — эксклюзивные интервью с создателями и актерами, репортажи со съемочной площадки и многое другое.


    Страна: Турция
    Продолжительность: 00: 51: 00 серия
    Перевод: Профессиональный (многоголосый, закадровый) (ТК Домашний)

    Файл
    Кодек: XviD / MP3
    Качество: WEB-DLRip
    Видео: 720x400 (16: 9), 25.000 fps, ~900 kbps, 0.145 bit/pixel
    Звук: MP3, 44.1 kHz, 2 ch, 128 kbps |Домашний|

    Скриншоты
    MediaInfo
    General
    Complete name : /media/Muhtesem Yuzy?l. Yapim Belgeseli/Muhtesem Yuzy?l. Yapim Belgeseli.s01.avi
    Format : AVI
    Format/Info : Audio Video Interleave
    File size : 388 MiB
    Duration : 51mn 48s
    Overall bit rate : 1 047 Kbps
    Writing application : MEncoder SVN-r33883(20110719-gcc4.5.2)
    Writing library : MPlayer

    Video
    ID : 0
    Format : MPEG-4 Visual
    Format profile : Advanced Simple@L5
    Format settings, BVOP : 2
    Format settings, QPel : No
    Format settings, GMC : No warppoints
    Format settings, Matrix : Default (H.263)
    Codec ID : XVID
    Codec ID/Hint : XviD
    Duration : 51mn 48s
    Bit rate : 906 Kbps
    Width : 720 pixels
    Height : 400 pixels
    Display aspect ratio : 16: 9
    Original display aspect ratio : 16: 9
    Frame rate : 25.000 fps
    Color space : YUV
    Chroma subsampling : 4: 2: 0
    Bit depth : 8 bits
    Scan type : Progressive
    Compression mode : Lossy
    Bits/(Pixel*Frame) : 0.126
    Stream size : 336 MiB (87%)
    Writing library : XviD 1.2.1 (UTC 2008-12-04)

    Audio
    ID : 1
    Format : MPEG Audio
    Format version : Version 1
    Format profile : Layer 3
    Mode : Joint stereo
    Mode extension : MS Stereo
    Codec ID : 55
    Codec ID/Hint : MP3
    Duration : 51mn 48s
    Bit rate mode : Constant
    Bit rate : 128 Kbps
    Channel(s) : 2 channels
    Sampling rate : 44.1 KHz
    Compression mode : Lossy
    Delay relative to video : 40ms
    Stream size : 47.4 MiB (12%)
    Alignment : Aligned on interleaves
    Interleave, duration : 26 ms (0.65 video frame)
    Interleave, preload duration : 522 ms
    Writing library : LAME3.98.4

    Размер: 387.87 MB (406714166 Bytes)
    Рейтинг →
     (голосов: 1, оценка 5/5, голосовать можно 1 раз )

    Другие торренты по теме:

  • Великолепный век / Muhtesem Yzyil (2011-2012) HDTVRip | L1
  • OST - Великолепный век / Muhteem Yzyl / Muhtesem Yuzyil - Vol 1 (2013) MP3
  • Великолепный век / Muhtesem Yzyil (2012-2013) WEBDLRip | D
  • Великолепный век / Muhtesem Yzyil (2013) WEB-DLRip | L1 скачать через торрент
  • Великолепный век / Muhtesem Yzyil (2013) SATRip | L1
  • Великолепный век / Muhtesem Yuzyil (2013) TVRip | L1 скачать через торрент
  • Великолепный век / Muhtesem Yuzyil (2011-2013) WEB-DLRip | ТК Домашний скачать через торрент
  • Великолепный век / Muhtesem Yuzyil (2013) WEB-DLRip скачать через торрент


    • Комментарии (0):

      Информация

      Информация

        Посетители, находящиеся в группе Гости, не могут оставлять комментарии в данной новости.

        ↓ Меню




        ↓ Опрос

        А Вы добавили сайт в закладки?
        Да
        Нет


        Top 10 за месяц (Фильмы)