Подписывайся на наш канал в Telegram https://t.me/torrentok и получи доступ к торрентам без ограничений!
.
Авторизация | Регистрация
fantor.club


Гимнастки / Добиться или сломаться / Make It or Break It (2012) WEB-DL 720p | MTV Russia скачать торрент бесплатно

Дата: 25-06-2015, 05:06 | .torrent скачали: 65


Гимнастки / Добиться или сломаться / Make It or Break It (2012) WEB-DL 720p | MTV Russia
Информация о сериале
Русское название: Гимнастки
Русское название в мировом прокате: Make It or Break It
Создали в: 2012
Категория жанра: драма, спорт
Автор идеи: Холли Соренсен/Holly Sorensen/
Главный режиссеры: Дэвид Пэймер/David Paymer/ , Крис Грисмер/Chris Grismer/ , Стив Майнер/Steve Miner/ и др.

Актеры
Айла Келл/Ayla Kell/ , Джози Лорен/Josie Loren/ , Касси Скербо/Cassie Scerbo/ , Нил Джексон/Neil Jackson/ , Кендес Камерон Буре/Candace Cameron Bure/ , Энтони Старк/Anthony Starke/ , Дондре Уитфилд/Dondre Whitfield/ , Челси Таварес/Chelsea Tavares/ , Том Мэден/Tom Maden/ , Аманда Лейтон/Amanda Leighton/ и др.
О сериале:
Боулдер, Колорадо — город, в котором располагается одна из лучших тренировочных баз по спортивной гимнастике. Это также дом для трех олимпийских надежд — целеустремленной Пэйсон Килер, соперничающей со всеми Лорен Таннер и пользующейся спросом Кейли Круз. Все они являются главными кандидатами на первые три места в национальном чемпионате.
Все меняется с внезапным прибытием Эмили Кметко. Неудивительно, что восхождение темной лошадки помешало многим людям, прежде всего Лорен, которая поставила перед собой задачу донимать новенькую на каждом шагу.

Снималось в: США
Киностудия: ABC Family
Время просмотра: 8 x ~ 00: 43: 00
Перевод текста: Профессиональный (многоголосый, закадровый) -MTV Russia
Файл
Кодек для видео: H.264
Качество фильма: WEB-DL 720p
Информация о видео: 1280x720 at 23.976 fps, MPEG-4 AVC, ~4000 kbps avg
Информация о звуке#1: Russian: 48 kHz, AC3, 2/0 (L, R) ch, ~192.00 kbps avg |Многоголосый закадровый, MTV Russia |
Информация о звуке#2: English: 48 kHz, AC3, 3/2 (L, C, R, l, r) + LFE ch, ~384.00 kbps avg |Оригинал|
Субтитры: none
Скриншоты

MediaInfo
General
Complete name : Make.It.or.Break.It.S03E01.720p.WEB-DL.MTV.mkv
Format : Matroska
Format version : Version 2
File size : 1.41 GiB
Duration : 43mn 35s
Overall bit rate : 4 646 Kbps
Movie name : Make It or Break It S03E01 ;Smells Like Winner; by SPS
Encoded date : UTC 2012-10-03 18: 39: 22
Writing application : mkvmerge v5.8.0 (;No Sleep/Pillow;) built on Sep 2 2012 15: 37: 04
Writing library : libebml v1.2.3 + libmatroska v1.3.0
Video
ID : 1
Format : AVC
Format/Info : Advanced Video Codec
Format profile : High@L3.1
Format settings, CABAC : No
Format settings, ReFrames : 2 frames
Codec ID : V_MPEG4/ISO/AVC
Duration : 43mn 35s
Bit rate : 3 977 Kbps
Width : 1 280 pixels
Height : 720 pixels
Display aspect ratio : 16: 9
Frame rate mode : Constant
Frame rate : 23.976 fps
Color space : YUV
Chroma subsampling : 4: 2: 0
Bit depth : 8 bits
Scan type : Progressive
Bits/(Pixel*Frame) : 0.180
Stream size : 1.21 GiB (86%)
Language : English
Default : No
Forced : No
Color range : Limited
Color primaries : BT.709
Transfer characteristics : BT.709
Matrix coefficients : BT.709
Audio #1
ID : 2
Format : AC-3
Format/Info : Audio Coding 3
Mode extension : CM (complete main)
Format settings, Endianness : Big
Codec ID : A_AC3
Duration : 43mn 35s
Bit rate mode : Constant
Bit rate : 192 Kbps
Channel(s) : 2 channels
Channel positions : Front: L R
Sampling rate : 48.0 KHz
Compression mode : Lossy
Stream size : 59.9 MiB (4%)
Title : MTV
Language : Russian
Default : Yes
Forced : No
Audio #2
ID : 3
Format : AC-3
Format/Info : Audio Coding 3
Mode extension : CM (complete main)
Format settings, Endianness : Big
Codec ID : A_AC3
Duration : 43mn 35s
Bit rate mode : Constant
Bit rate : 384 Kbps
Channel(s) : 6 channels
Channel positions : Front: L C R, Side: L R, LFE
Sampling rate : 48.0 KHz
Compression mode : Lossy
Stream size : 120 MiB (8%)
Language : English
Default : No
Forced : No
Список серий
01. Smells Like Winner/Запах победы
02. It Takes Two/Двое это команда
03. Time is of the Essence/Время не ждёт
04. Growing Pains/Болезненное взросление
05. Dream On/Мечтай
06. Listen to the Universe/Слушай вселенную
07. Truth Be Told/Правда, как она есть
08. United Stakes/Дружба объединяет


Онлайн видео Гимнастки


Размер скачиваемого торрента: 11.22 GB (12051750264 Bytes)
Рейтинг →
 (голосов: 1, оценка 5/5, голосовать можно 1 раз )

Другие торренты по теме:

  • Гимнастки / Добиться или сломаться / Make It or Break It (2009-2010) WEB-DL 720p | MTV Russia
  • Гимнастки / Добиться или сломаться / Make It or Break It (2010-2011) WEB-DL 720p | MTV Russia


    • Комментарии (0):

      Информация

      Информация

        Посетители, находящиеся в группе Гости, не могут оставлять комментарии в данной новости.