Подписывайся на наш канал в Telegram https://t.me/torrentok и получи доступ к торрентам без ограничений!
.
Авторизация | Регистрация
fantor.club


Секретарь райкома (1942) DVDRip от New-Team скачать торрент бесплатно

Дата: 5-03-2015, 11:54 | .torrent скачали: 190

Секретарь райкома (1942) DVDRip от New-Team
Снималось в: СССР
Создали в: Мосфильм, ЦОКС
Категория жанра: драма, военный
Создали в: 1942
Время просмотра: 01:25:33
Перевод текста:Не требуется
Субтитры подготовлены: нет
Оригинальная аудиодорожка: русский
Главный режиссер: Иван Пырьев

Актеры

Василий Ванин, Михаил Астангов, Марина Ладынина, Михаил Жаров, Михаил Кузнецов, Борис Пославский, Виктор Кулаков, Николай Боголюбов, Анатолий Алексеев, Инна Федорова...
Описание:
Снят фильм во время войны и конечно, его основной задачей было поднять дух советских людей. Немцы наступают. Секретарь райкома Кочет руководит эвакуацией и уничтожением того, что нет возможности вывезти. Товарищ Ротман отказывается взрывать электростанцию, и Кочет взрывает ее лично. Под его руководством организуется партизанский отряд. С партизанами уходят связистка Наташа (Ладынина), внук (Кузнецов) с дедом (Жаров), уже трижды воевавшим с немцами, и многие другие. Начинается партизанская война: взрываются мосты, летят под откосы поезда. У немцев отбивают пленного советского танкиста, которого немцы заслали как шпиона. Он делает вид, что учится у Наташи работать на радиопередатчике, а сам передает данные о месторасположении отряда...



Источник:DVD5 R5
Качество фильма видео:DVDRip
Тип видео видео: AVI
Информация о видео: 688x512 (4:3), 25 fps, XviD ~ 2234 kbps avg, 0.254 bit/pixel
Информация о звуке: 48 kHz, Dolby Digital AC3 2.0, 192 kbps
Раздача от:
MediaInfo

Общее
Полное имя : Sekretar.raykoma.1942.DVDRip_New-team_by_AVP_Studio.avi
Формат : AVI
Формат/Информация : Audio Video Interleave
Размер файла : 1, 46 Гбайт
Продолжительность : 1 ч. 25 м.
Общий поток : 2436 Кбит/сек
Программа кодирования : VirtualDubModRus 1.5.10.2 (build 2542/release)
Библиотека кодирования : VirtualDubMod build 2542/release
Видео
Идентификатор : 0
Формат : MPEG-4 Visual
Профиль формата : Advanced Simple@L5
Параметр BVOP формата : 1
Параметр QPel формата : Нет
Параметр GMC формата : Без точки перехода
Параметр матрицы формата : Выборочная
Идентификатор кодека : XVID
Идентификатор кодека/Подсказка : XviD
Продолжительность : 1 ч. 25 м.
Битрейт : 2234 Кбит/сек
Ширина : 688 пикселей
Высота : 512 пикселей
Соотношение сторон : 4:3
Частота кадров : 25, 000 кадров/сек
Цветовое пространство : YUV
Субдискретизация насыщенности : 4:2:0
Битовая глубина : 8 бит
Тип развёртки : Прогрессивная
Метод сжатия : С потерями
Бит/(Пиксели*Кадры) : 0.254
Размер потока : 1, 34 Гбайт (92%)
Библиотека кодирования : XviD 73
Аудио
Идентификатор : 1
Формат : AC-3
Формат/Информация : Audio Coding 3
Расширение режима : CM (complete main)
Параметр Endianness формата : Big
Идентификатор кодека : 2000
Продолжительность : 1 ч. 25 м.
Вид битрейта : Постоянный
Битрейт : 192 Кбит/сек
Каналы : 2 канала
Расположение каналов : Front: L R
Частота : 48, 0 КГц
Битовая глубина : 16 бит
Метод сжатия : С потерями
Размер потока : 117 Мбайт (8%)
Выравнивание : Разделение по промежуткам
Продолжительность промежутка : 40 мс. (1, 00 видеокадр)
Время предзагрузки промежутка : 500 мс

Скриншоты

4.png

Залил: AVPStudio
Размер скачиваемого торрента: 1.46 GB (1562892288 Bytes)
Рейтинг →
 (голосов: 1, оценка 3/5, голосовать можно 1 раз )

Другие торренты по теме:

  • Коуст Дора – Секретарь на удачу 1, Секретарь для эгоиста [Бобылёва Дина, 2019, 128 kbps, MP3]
  • Генеральный секретарь (Ко дню рождения Л.И.Брежнева, 1976 г.)
  • Государственный секретарь / Madam Secretary / Сезон: 2 / Серии: 1-16 (22) (Morgan Freeman) DVO (Kiitos)
  • Государственный секретарь / Madam Secretary / Сезон: 2 / Серии: 1-17 (22) (Morgan Freeman) DVO (Kiitos)
  • Государственный секретарь / Madam Secretary (2015) WEB-DLRip (сезон 2, серии 1-17 из 22) kiitos (обновляемая)
  • Государственный секретарь / Madam Secretary (2015) WEB-DL (сезон 2, серии 1-17 из 22) (kiitos) (обновляемая)
  • Государственный секретарь / Madam Secretary / Сезон: 2 / Серии: 1-18 (22) (Morgan Freeman) DVO (Kiitos)
  • Государственный секретарь / Madam Secretary (2015) WEB-DL (сезон 2, серии 1-18 из 22) (kiitos) (обновляемая)


    • Комментарии (0):

      Информация

      Информация

        Посетители, находящиеся в группе Гости, не могут оставлять комментарии в данной новости.